Home
Downloads
Community
Submit
Marketplace

PC

CUE Sheet Maker w/ Drivers Update Information
Update Boxart
Add Screenshots
Add Video
Report File

So ever got a game that was just a bin file with no cue sheet? Or ISO and WAV files again without a CUE sheet? Well here is the answer to all your prayers. This works for all systems i have tried even though it was designed for the Sega CD. I have tried TG16/PC Engine, Sega CD, Neo Geo CD, Saturn, Playstation games and it makes a valid CUE sheet for all. Now if you have an ISO and MP3 set this is for emulators only and you will need to convert all MP3 to WAV files before burning for console use as it will just leave them as MP3 and you will have no sound. I suggest at that point if you can look for a BIN/CUE or another ISO/WAV set of files to be honest as MP3 conversion results in quality loss. Also some release in ISO/OGG again anything other then WAV/RAW files (they are the same really) need to be converted to WAV before burning the disc.


EDIT

This is for ISO/WAV files only, if you have a bin file and no CUE sheet read my post below or use This APP here!! to make your own CUE sheet if you are to lazy to do it by hand.


Here are my tools for these sets

Sega CUE Sheet Maker w/ Drivers
IMGBurn 2.5.7.0
SCDConv 2.5
ConvSCD 1.0
Saturn Region Patcher SRP 3.0 "Gold Edition"
Convert disc.bin.ecm files to disc.bin files!!
Convert BIN/CUE to ISO/WAV without quality loss for emulators


Rate This Content!

Download
1 File download, Total size 89.31 KB

Comments
(9 Comments) Latest comment was 6 years ago
atreyu187 View Profile
Message User
Thank User
6 years ago
Either leave the driver in the folder it comes in or you can drop the OCX file into your C:\Windows\System32 folder so it can be used by any app that may need it instead of having to hunt for the file again. The file is one of my own not just a random one of the internet and all files are clean according to Kaspersky 2012 Internet Security Suite. Was needed by a member here named deborahdavies but I figured I would post it for all as not everyone is am emulator user like myself and all these latest PC Engine games are useless to us hardware users without a CUE sheet so I thought I would share to make everyone's world easier.
atreyu187 View Profile
Message User
Thank User
6 years ago
Your welcome as always I am just here to spread my TB's of data with the masses.
Vevil View Profile
Message User
Thank User
6 years ago
@atreyu187...thanks for the CUE sheet maker with drivers...
deborahdavies View Profile
Message User
Thank User
6 years ago
EVERYONE WHO BURNS GAMES NEEDS THIS PROGRAM,damn this is gonna come in handy
atreyu187 View Profile
Message User
Thank User
6 years ago
Glad you all like enjoy!!
Bladeforce View Profile
Message User
Thank User
6 years ago
so if i got a bin file with cd audio already in the bin file this will not know the audio is there and just make a data cue? if it does this is useless for me
atreyu187 View Profile
Message User
Thank User
6 years ago
For Bin files make your won it is easy. Just open notepad then type this

TRACK 01 MODE1/2352
INDEX 01 00:00:00
TRACK 02 AUDIO
PREGAP 00:02:00
INDEX 01

All bin files cue sheets start off like this. Here is the full example.

FILE "Alon in the Dak II.bin" BINARY
TRACK 01 MODE1/2352
INDEX 01 00:00:00
TRACK 02 AUDIO
PREGAP 00:02:00
INDEX 01 16:21:46

Just add the games name up top then you just need to add the CDDA time to the rest of the sheet. Or if you want an app to do it for you then use this for bin files.

HERE
amiga1200 View Profile
Message User
Thank User
6 years ago
always good to have more tools!!
thanks and i'll save your above comment onto a text doc...(well, you never know...)
great stuff!!
Please Log In
You must be logged in to your Community Account in order to post a comment
Please login using the form located at the top right of this website or Create a Community Account

Community Accounts are free and allow you to upload content, posts comments, participate in our forums and more!
Log In
Community Login




Log me on automatically each visit
I forgot my password | Create a Free Community Account
New Forum Topics
Recent Comments
Enemy Infestation
Looks cool, thanks V.
Posted by 119988 2 hours ago
Sega Rally 2006
The best thing about Sega Rally 2006 is the 2nd disc with Sega Rally Champi ...
Posted by 178638 4 hours ago
Dave Mirra Freestyle BMX 2
Love ya, varettaja -- thanks!
Posted by 76994 4 hours ago
Sega Rally 2006
The weirdest thing is that this game actually runs on PAL and NTSC at the s ...
Posted by 186302 5 hours ago
SD Media Launcher Disk
Nevermind, I found a way to dump it myself. I just don't know how to share ...
Posted by 200065 9 hours ago
Community Stats

Home | Legal Notice | DMCA Policy | DMCA File Removal Center | Contact