Home
Downloads
Community
Submit
Marketplace

Burned Pro Pinball Big Race USA and No Audio playing in Game

Discuss Everything Related to the PlayStation 1 Here!

Burned Pro Pinball Big Race USA and No Audio playing in Game

Postby spannernick » Sat Apr 21, 2018 3:22 pm

I copied today Pro Pinball Big Race USA PAL and NTSC and it loads fine but will not play the audio,you can hear the drive squeaking trying too,I am using imgburn to copy them,I have done it at X8 and at MAX speed and no different,The PAL version came for here..

I copied one of my copies I have of Mortal Kombat Trilogy and that uses CD audio too and the copy works fine,so I don't understand why,maybe its the cue file.

I am loading on a real PS1 btw not an emulator,Its white and has it own screen.

Just wasted 3 CDs and none of the CD audio plays at all...?

I think its the cue sheet,its made wrong..

Mortal Kombat Trilogy Part of its Cue sheet

FILE "Motal_Kombat_Trilogy_PAL_PS1.bin" BINARY
TRACK 01 MODE2/2352
INDEX 01 00:00:00
TRACK 02 AUDIO
PREGAP 00:02:00
INDEX 01 06:26:12
TRACK 03 AUDIO
INDEX 01 08:36:34
TRACK 04 AUDIO
INDEX 01 10:42:43
TRACK 05 AUDIO
INDEX 01 12:26:38
TRACK 06 AUDIO
INDEX 01 14:43:49
TRACK 07 AUDIO
INDEX 01 17:23:65

Pro Pinball Pal part Of its Cue Sheet.

FILE "Pro Pinball - Big Race USA (Europe) (En,Fr,De,Es) (Track 01).bin" BINARY
TRACK 01 MODE2/2352
INDEX 01 00:00:00
FILE "Pro Pinball - Big Race USA (Europe) (En,Fr,De,Es) (Track 02).bin" BINARY
TRACK 02 AUDIO
INDEX 00 00:00:00
INDEX 01 00:02:00
FILE "Pro Pinball - Big Race USA (Europe) (En,Fr,De,Es) (Track 03).bin" BINARY
TRACK 03 AUDIO
INDEX 00 00:00:00
INDEX 01 00:02:00
FILE "Pro Pinball - Big Race USA (Europe) (En,Fr,De,Es) (Track 04).bin" BINARY
TRACK 04 AUDIO
INDEX 00 00:00:00
INDEX 01 00:02:00
FILE "Pro Pinball - Big Race USA (Europe) (En,Fr,De,Es) (Track 05).bin" BINARY
TRACK 05 AUDIO
INDEX 00 00:00:00
INDEX 01 00:02:00
FILE "Pro Pinball - Big Race USA (Europe) (En,Fr,De,Es) (Track 06).bin" BINARY
TRACK 06 AUDIO
INDEX 00 00:00:00
INDEX 01 00:02:00
FILE "Pro Pinball - Big Race USA (Europe) (En,Fr,De,Es) (Track 07).bin" BINARY
TRACK 07 AUDIO
INDEX 00 00:00:00
INDEX 01 00:02:00


See the diffetent in mortal Kombat it telling where the audio file starts and begins,Pro Pinball don't just has a gap for 2 seconds,I noticed this with Mega CD games too the Audio don't work if it only has a 2 second gap only,it need to know where the audio is on the CD thats why it don't work,so these Cue sheets need fixing.They might be ok for a emulator,well Retroarch don't work with them,had to copy Mega CD image to a DCRW and copy it back to a image so imgburn could made the right Cue file so it was Cue+Bin.
  • 0

Spannernick...
User avatar
spannernick Newbie
 
Posts: 4
Joined: Sun Jan 12, 2014 12:05 pm
Reputation: 0

Re: Burned Pro Pinball Big Race USA and No Audio playing in

Postby spannernick » Sat Apr 21, 2018 7:04 pm

Your able to play the audio in the CD player on the PS1 but will not play in the game,very weird...???
  • 0

Spannernick...
User avatar
spannernick Newbie
 
Posts: 4
Joined: Sun Jan 12, 2014 12:05 pm
Reputation: 0

Re: Burned Pro Pinball Big Race USA and No Audio playing in

Postby erik1977 » Sat Apr 21, 2018 11:44 pm

That cue sheet looks wrong. Every track has the same index.
  • 0

Systems I currently own:

Spoiler:
Playstation (modchip)
Xbox 360 slim
PS3 slim

Gaming PCs:

Win7 x64 desktop (Athlon II X2 250 3ghz, 2gb ram, Radeon x1650 512mb)
WinXP desktop (Athlon XP 2800+ 2.1ghz, 2gb ram, Radeon X800GTO 256mb)
Win98SE desktop (Pentium 3 550mhz, 320mb ram, Geforce TI4200 128mb, 3DFX Voodoo 2 12mb)
Win95 desktop (Pentium 133mhz, 40mb ram, Matrox Mystique 4mb, 3DFX Voodoo 2 8mb)
Win95 laptop (Pentium 166MMX, 32mb ram)
DOS 6.22 laptop (486DX2 50mhz, 8mb ram)
User avatar
erik1977 7
 
Posts: 1141
Joined: Thu Oct 09, 2014 6:56 pm
Reputation: 5053


Return to PSX Chat



Who is online

Users browsing this forum: No registered users and 24 guests



Home | Legal Notice | DMCA Policy | DMCA File Removal Center | Contact